Unity is strength... when there is teamwork and collaboration, wonderful things can be achieved.
Public Feed
Beginner
 
5 votes (55.56%)
Intermediate
 
0 votes (0%)
Expert
 
3 votes (33.33%)
I know the concept but never worked
 
0 votes (0%)
I don't know about cisco ACI
 
1 votes (11.11%)
R&S lab exam | may 2017 update | A5 variation
Acoustic Guitar Lessons: 2 Scales, Walking Bass, Hammer-Ons, and Pull-Offs
Introduction1. Scales and Chord Theory2. Walking Bass and Reading Tablature3. Hammer-Ons, Pull-Offs, and Slides4. Basic Bluegrass Tunes 24. Basic Bluegrass Tunes 2Conclusion
The Total Beginner's Guitar Course
└── 01 The Total Beginners Guitar Course├── 001 Introduction - Welcome.mp4├── 002 What Kind Of Guitar Should You Buy.mp4├── 003 Parts Of The Guitar.mp4├── 004 What Else Do You Need.mp4├── 005 Lets Get Started Playing.mp4├──... see more 006 Tuning Your Guitar.mp4├── 007 Finger Exercises.mp4├── 008 First Chords.mp4├── 009 Strumming And Transitions.mp4├── 010 Music Theory 101 - Intervals.mp4├── 011 Power Chords.mp4├── 012 Tone 101 - Distortion.mp4├── 013 Music theory 102 - Playing In Key.mp4├── 014 Technique 102 - Palm Muting.mp4├── 015 Tone 102 - Reverb.mp4├── 016 Final Summary And Free Bonus Material.mp4└── attached_files├── 001 Introduction - Welcome│ └── Guitargate-1.1-Welcome-and-Intro.pdf├── 002 What Kind Of Guitar Should You Buy│ └── Guitargate-1.2-What-Kind-Of-Guitar-Should-You-Buy.pdf├── 003 Parts Of The Guitar│ └── Guitargate-1.3-Parts-Of-The-Guitar.pdf├── 004 What Else Do You Need│ └── Guitargate-1.4-What-Else-Do-I-Need.pdf├── 005 Lets Get Started Playing│ └── Guitargate-1.5-Get-Started-Playing.pdf├── 006 Tuning Your Guitar│ └── Guitargate-1.6-Tuning-Your-Guitar.pdf├── 007 Finger Exercises│ └── Guitargate-1.7-Technique-101-Finger-Exercises.pdf├── 008 First Chords│ └── Guitargate-1.8-Introduction-To-Chords.pdf├── 009 Strumming And Transitions│ └── Guitargate-1.9-Rhythm-101-Strumming-And-Transitions.pdf├── 010 Music Theory 101 - Intervals│ └── Guitargate-1.10-Music-Theory-101-Intervals.pdf├── 011 Power Chords│ └── Guitargate-1.11-Rhythm-102-Power-Chords.pdf├── 012 Tone 101 - Distortion│ └── Guitargate-1.12-Tone-101-Distortion.pdf├── 013 Music theory 102 - Playing In Key│ └── Guitargate-1.13-Music-Theory-102-Playing-In-Key.pdf├── 014 Technique 102 - Palm Muting│ └── Guitargate-1.14-Technique-102-Palm-Muting.pdf├── 015 Tone 102 - Reverb│ └── Guitargate-1.15-Tone-102-Reverb.pdf└── 016 Final Summary And Free Bonus Material└── Guitarate-1.16-Level-1-Wrap-Up-Udemy.pdf
├── 01 Introduction│ └── 001 Welcome.mp4├── 02 Developing a good position│ ├── 002 Developing a good position.mp4│ ├── 003 Fingering.mp4│ ├── 004 Preparatory Exercise.mp4│ ├── 005 Articulation.mp4│ ├── 006 C Major Scale.mp4│ └── 007... see more Complete Routine.mp4├── 03 Music Theory│ ├── 008 Notes.mp4│ ├── 009 Rhythmical Figures..mp4│ └── 010 Theory Musical accidents.mp4├── 04 Reading and playing treble Clef│ ├── 011 Reading Music.mp4│ ├── 012 Treble Clef Exercise 1.mp4│ ├── 013 Treble Clef Exercise 2.mp4│ ├── 014 Treble Clef Exercise 3.mp4│ ├── 015 Treble Clef Exercise 4.mp4│ ├── 016 Treble Clef Exercise 5.mp4│ └── attached_files│ ├── 012 Treble Clef Exercise 1│ │ └── Treble-Clef-Excercise-1.jpeg│ ├── 013 Treble Clef Exercise 2│ │ └── Treble-Clef-Excercise-2.jpeg│ ├── 014 Treble Clef Exercise 3│ │ └── Treble-Clef-Excercise-3.jpeg│ ├── 015 Treble Clef Exercise 4│ │ └── Treble-Clef-Excercise-4.jpeg│ └── 016 Treble Clef Exercise 5│ └── Treble-Clef-Excercise-5.jpeg├── 05 Reading and playing bass clef│ ├── 017 Bass Clef Exercise 1.mp4│ ├── 018 Bass Clef Exercise 2.mp4│ ├── 019 Bass Clef Exercise 3.mp4│ ├── 020 Bass Clef Exercise 4.mp4│ ├── 021 Bass Clef Exercise 5.mp4│ └── attached_files│ ├── 017 Bass Clef Exercise 1│ │ └── Bass-Clef-Excercise-1.jpeg│ ├── 018 Bass Clef Exercise 2│ │ └── Bass-Clef-Excercise-2.jpeg│ └── 019 Bass Clef Exercise 3│ └── Bass-Clef-Excercise-3.jpeg├── 06 Reading and playing with both hands│ ├── 022 Both Hands Exercise 1.mp4│ ├── 023 Both Hands Exercise 2.mp4│ ├── 024 Both Hands Exercise 3.mp4│ ├── 025 Ode to Joy -Part I-.mp4│ └── 026 Ode to Joy -Part II-.mp4├── 07 General information about studying piano│ ├── 027 General Information.mp4│ ├── 028 Finding an Instrument.mp4│ ├── 029 Finding a Teacher.mp4│ ├── 030 Types of schools.mp4│ ├── 031 Online Lessons.mp4│ └── 032 Study Routine.mp4├── 08 Congratulations│ └── 033 Congratulations.mp4└── 09 Bonus Lecture└── 034 About website courses and discounts..html
Pianoforall - Incredible New Way To Learn Piano & Keyboard
01 - Party Time - Play By Ear - Rhythm Style Piano02 - Blues and Rock n Roll03 - Chord Magic04 - Advanced Chords Made easy05 - Ballad Style06 - Jazz Piano Made Easy07 - Advanced Blues Fake Stride08 - Taming The Classics09 - Speed learning10... see more - Books (pdf)
The Complete Piano Course - Master The Piano
01 Introduction02 Piano Knowledge03 Music Theory04 Preperation05 Basic Introduction06 Basic Scales07 Basic Chords08 Basic Arpeggios09 Basic Improvisation10 Intermediate Scales11 Intermediate Chords12 Intermediate Arpeggios13 Intermediate Improvisation14 Advanced... see more Scales15 Advanced Chords16 Advanced Arpeggios17 Advanced Improvisation18 Conclusion
Part 1. Framework Laravel. Theory and features of the framework. 01 Introduction 02 Installing Homestead 03 Installing framework on OpenServer 04 file structure of the framework 05 of the framework settings 06 Operating principle of the framework 07 route registration methods. Part 1 08 route registration... see more methods. Part 2 09 Controllers 10 classes intermediary 11 Types 12 templating Blade. Part 1 13 templating Blade. Part 2 14 classes Request 15 Formation response. Response Class 16 Migration 17 Data Seeding 18 SQL-query 19, Query Designer 20 Using models. Part 1 21 Using models. Part 2 22 of the Implementing relationships between tables 23 Manipulation of related records 24 Other methods for working with connections 25 Data Validation. Part 1 26 Data Validation. Part 2 27 Communications validation errors 28 Authentication polzovateley.Chast 1 29 User Authentication. Part 2 30 Methods facade Auth 31 Authorization members 32 classes of authorization policies 33 Sessions 34 Event processing 35 Localization 36 contracts 37 service providers 38 Service container 39 facadesPart 2. The framework Laravel. Creating a Landing Page. 01 Introduction. Setting the framework 02 Creating database tables 03 Creating Routes 04 Creating a master controller and type 05 Creating models. Sample data from the database tables 06 Display the selected On-Screen display 07 Completion of the form of the main page 08 The mechanism of sending e-mail messages 09 page material 10 standard authentication mechanism 11 Adding forms a new material 12 Logic preserve records in a database table 13 editing material Form 14 Updating information database 15 content removal. ConclusionPart 3: Framework Laravel. Creating a corporate website. 01 Introduction. Setting the framework 02 Creating a database 03 Routes. Global Controller user of the 04 sample data for the main menu of the project 05 Displaying the main menu on the screen 06 Create a slider 07 Formation on the main page content. Part 1 08 Formation of the content on the main page. Part 2 09 Display right side bar of the home page 10 of the draft Localization 11 Home Blog section 12 of missing models. Display on the screen material 13 controls page navigation 14 Right Side bar Blog section 15 Finalization of sidebar. Optimization of the blog page 16 page single blog material. Part 1 of 17 total Page separate blog material. Part 2 18 comment block 19 Form add a new comment 20 Saving a new comment in the database 21, display on the screen of the added comments. Part 1 22 display on the screen of the added comments. Part 2 of 23 total Page list works portfolio 24 page detailed view portfolio of work 25 Page Contacts 26 Page 404 27 Authentication page 28 Home Admin panel 29 Rights and privileges on 30 Method of verification of user rights 31 Home section Materials Management 32 Adding a form of new material 33 Saving new material to the database. Part 1 34 Save the new material into the database. Part 2 35 Form editing material 36 Updating the material 37 removal of materials 38 Page edit user rights 39 Update information about user rights 40 menu Section 41 The page for adding a new paragraph 42 Saving new reference 43 page edit screen 44 Updating and Deleting data menu links 45 section of the user 46 conclusionBonuses: Bonus 1. Premium rate. Course on PHP Programming Bonus 2. Premium rate. The PHP OOP Course (object-oriented programming in PHP) Bonus 3 Premium Course. On MySQL Database Course Bonus 4. Caching Laravel Bonus 5. Transfer website hosting
Photoshop CC 2017 for Photographers
├── 001 Welcome.mp4├── 002 Getting the most out of this course.mp4├── 003 Using the exercise files.mp4├── 004 Before and after views of images.mp4├── 005 Photoshop's role in today's workflow.mp4├── 006 Accessing your images with... see more Bridge.mp4├── 007 Getting started with Lightroom.mp4├── 008 Setting up your color settings.mp4├── 009 Fine-tuning your preferences.mp4├── 010 Choosing and customizing a workspace.mp4├── 011 What is Camera Raw_.mp4├── 012 Camera Raw and Photoshop case study.mp4├── 013 Opening images into Camera Raw.mp4├── 014 Improving your images with the basics.mp4├── 015 Using the Start workspace.mp4├── 016 Opening, saving, and closing a photograph.mp4├── 017 Getting familiar with the interface.mp4├── 018 Using tools and undoing mistakes.mp4├── 019 Zooming and panning on your photos.mp4├── 020 Expert zooming and panning tips.mp4├── 021 Choosing and changing the screen mode.mp4├── 022 Arranging and viewing multiple documents.mp4├── 023 Pixels and image sizing.mp4├── 024 Resizing an image to a smaller size.mp4├── 025 Exporting for email and social media.mp4├── 026 Challenge - Resizing a photo for print and online.mp4├── 027 Solution - Resizing a photo for print and online.mp4├── 028 Mastering the Crop tool.mp4├── 029 Cropping and straightening your photos.mp4├── 030 Fixing a crooked image.mp4├── 031 Cropping projects.mp4├── 032 Challenge - Level and resize a photo to make a 5x5 print.mp4├── 033 Solution - Level and resize a photo to make a 5x5 print.mp4├── 034 Why layers matter.mp4├── 035 Creative layers case study.mp4├── 036 Creating new blank layers.mp4├── 037 Working with type layers.mp4├── 038 Improving color with adjustment layers.mp4├── 039 Applying layer style effects.mp4├── 040 Combining multiple images into one document.mp4├── 041 Combining multiple images and creating a color border.mp4├── 042 Organizing layers into groups.mp4├── 043 Challenge - Using layers.mp4├── 044 Solution - Using layers.mp4├── 045 Adding brightness and contrast.mp4├── 046 Fixing exposure with Levels.mp4├── 047 Fine-tuning an image with Curves.mp4├── 048 Fixing an underexposed image.mp4├── 049 Correcting exposure with Camera Raw as a Smart Filter.mp4├── 050 Challenge - Correcting exposure.mp4├── 051 Solution - Correcting exposure.mp4├── 052 Using the Elliptical Marquee tool to make a selection.mp4├── 053 Selecting and changing a rectangular area.mp4├── 054 Selecting with the Lasso tools.mp4├── 055 Working with the Quick Select tool.mp4├── 056 Quick Select project workflow.mp4├── 057 Making a selection with Focus Area.mp4├── 058 Challenge - Selecting the subject from the background.mp4├── 059 Solution - Selecting the subject from the background.mp4├── 060 Introducing masks.mp4├── 061 Improving an image with custom masks.mp4├── 062 Feathering a mask.mp4├── 063 Using a gradient mask to fix exposure.mp4├── 064 Copying a mask to save time.mp4├── 065 Challenge - Creating a color effect.mp4├── 066 Solution - Creating a color effect.mp4├── 067 Changing colors in Camera Raw.mp4├── 068 Creative color adjustments with Camera Raw.mp4├── 069 Fine-tuning color with Hue and Saturation.mp4├── 070 Using Hue and Saturation with masking.mp4├── 071 Changing the color of a dress.mp4├── 072 Two steps to creating vivid and beautiful color.mp4├── 073 Using Color Balance to create vivid color.mp4├── 074 Challenge - Advanced work with brightness and color.mp4├── 075 Solution - Advanced work with brightness and color.mp4├── 076 Converting to black and white with Camera Raw.mp4├── 077 Making a strong black-and-white portrait.mp4├── 078 Creating better black-and-white landscape photographs.mp4├── 079 Creating a black-and-white film grain effect.mp4├── 080 Making more dramatic black-and-white images.mp4├── 081 Challenge - Black-and-white landscape.mp4├── 082 Solution - Black-and-white landscape.mp4├── 083 Adding lens flare.mp4├── 084 Changing focus with the Blur Gallery.mp4├── 085 Creating a tilt-shift blur effect.mp4├── 086 Adding a creative blur to a portrait.mp4├── 087 Adding light with lighting effects.mp4├── 088 Challenge - Adding blur.mp4├── 089 Solution - Adding blur.mp4├── 090 Sharpening with Camera Raw.mp4├── 091 Reducing unwanted noise in Camera Raw.mp4├── 092 Reducing unwanted noise with high-res files.mp4├── 093 Reducing unwanted noise in Photoshop.mp4├── 094 Sharpening your photos with Smart Sharpen.mp4├── 095 Sharpening a multilayered document.mp4├── 096 Using Focus Area to select the area to sharpen.mp4├── 097 Selective sharpening with Smart Sharpen.mp4├── 098 Challenge - Selective sharpening.mp4├── 099 Solution - Selective sharpening.mp4├── 100 Using Content-Aware Fill to remove distractions.mp4├── 101 Removing an object with Clone Stamp.mp4├── 102 Quick results with the Spot Healing tool.mp4├── 103 Seamless retouching with the Healing tools.mp4├── 104 Fixing a large area with the Patch tool.mp4├── 105 Increasing image content with Content-Aware Scale.mp4├── 106 Challenge - Removing a large object.mp4├── 107 Solution - Removing a large object.mp4├── 108 Improving skin with the Healing Brush tools.mp4├── 109 Wrinkle reduction.mp4├── 110 Whitening teeth with adjustment layers.mp4├── 111 Changing facial structure with Liquify.mp4├── 112 Changing shape with Liquify.mp4├── 113 Brightening the eyes.mp4├── 114 Improving eye shadows.mp4├── 115 Challenge - Creating more beautiful skin.mp4├── 116 Solution - Creating more beautiful skin.mp4├── 117 Getting ready to print - Resizing.mp4├── 118 Sharpening and brightening for final output.mp4├── 119 Selecting your printer and paper size.mp4├── 120 Choosing color management and printer settings.mp4├── 121 Next steps.mp4└── Ex_Files_PS_CC2017_Photographers.zip
Up and Running with Astute Graphics for Illustrator
├── 001 Welcome.mp4├── 002 Using the exercise files.mp4├── 003 What can you do with the Astute Graphics plugins_.mp4├── 004 Installing the Astute Graphics plugins.mp4├── 005 Overview.mp4├── 006 Working with dynamic... see more corners.mp4├── 007 Working with dynamic shapes.mp4├── 008 Editing paths with PathScribe.mp4├── 009 Using the Extend Path tool.mp4├── 010 Using the Smart Remove Brush tool.mp4├── 011 Using the Dynamic Measure tool.mp4├── 012 Using the Protractor panel.mp4├── 013 Connecting and straightening objects.mp4├── 014 Drawing tangents and perpendiculars.mp4├── 015 Drawing circles and arcs.mp4├── 016 Using the Snap to Collisions tool.mp4├── 017 Using the Rotate at Collision tool.mp4├── 018 Using the collision spacing.mp4├── 019 Mirroring artwork.mp4├── 020 Drawing with symmetry.mp4├── 021 Mirroring text and images.mp4├── 022 Adjusting colors with filters and effects.mp4├── 023 Creating vector halftones.mp4├── 024 Applying effects to photos.mp4├── 025 Drawing with InkScribe.mp4├── 026 Editing path segments with InkScribe.mp4├── 027 Adding, removing, and changing points with InkScribe.mp4├── 028 Drawing and modifying paths.mp4├── 029 Using Repeat Sketch.mp4├── 030 Using Intelligent Join.mp4├── 031 Using Gesture Trim.mp4├── 032 Using the Width Brush tool.mp4├── 033 Using the Width Gradient tool.mp4├── 034 Using the Width Selector tool.mp4├── 035 Using advanced controls for width markers.mp4├── 036 Using the Width Stamp panel.mp4├── 037 Using Width Stamp presets.mp4├── 038 Using custom contours.mp4├── 039 Overview.mp4├── 040 Working with drop shadows.mp4├── 041 Working with feathering.mp4├── 042 Working with Inner Glow and Outer Glow.mp4├── 043 Working with Transform effects.mp4├── 044 Working with Free Distort effects.mp4├── 045 Working with Offset Path.mp4├── 046 Working with Gaussian Blur.mp4├── 047 Configuring autosaves and backups.mp4├── 048 Understanding stippling.mp4├── 049 Use the stipple controls.mp4├── 050 Stippling vectors.mp4├── 051 Stippling text.mp4├── 052 Stippling photos.mp4├── 053 Create stipple effects with symbols.mp4├── 054 Understanding symbol stipple settings.mp4├── 055 Symbol registration points.mp4├── 056 Texturino overview.mp4├── 057 Using the Opacity Brush.mp4├── 058 Applying and editing texture effects.mp4├── 059 Combining multiple textures.mp4├── 060 Importing textures.mp4├── 061 Applying textures with graphics styles.mp4├── 062 Creating effects with Knockout mode.mp4├── 063 Using the Texture Manager.mp4├── 064 Using the Texture Brush.mp4├── 065 Converting embedded images to textures.mp4├── 066 Distorting textures.mp4├── 067 Packaging textures for collaboration.mp4├── 068 Next steps.mp4└── Ex_Files_UaR_Astute_Graphics.zip
Introduction to Graphic Design
IntroductionWelcomeHow to send feedbackChallenges explainedGetting to know your toolsIntroduction to the project(s)1. Core ConceptsWhat is graphic design?What makes a design great?Exploring the principles of layout and composition2. Introduction to TypographyWhat is typography?Understanding... see more fonts and typefacesExploring the anatomy of typeLearning the terminology of typeExploring the rules of typographyPairing typefaces for maximum impactFinding new typefaces for your projectsChallenge: Choosing a typefaceSolution: Choosing a typeface3. Introduction to ColorExploring the psychology of colorUnderstanding the rules of colorRGB vs. CMYK explainedChoosing the right colors for your designsChallenge: Create a color schemeSolution: Create a color scheme4. Planning Your ProjectUnderstanding the needs of your clientBrainstorming with thumbnail sketchesExploring your thumbnail sketchesChallenge: Planning your projectSolution: Planning your project5. Getting Started with IllustratorGetting started with IllustratorDrawing basic shapes for your logoCombining shapes togetherDrawing complex shapesSetting type in IllustratorAdding color to your artworkTracing raster graphics using Image TraceCreating patterns and gradientsSaving your Illustrator artwork6. Getting Started with PhotoshopGetting started with PhotoshopMaking selectionsWorking with layer masksChallenge: MaskingSolution: MaskingCombining two images togetherRemoving unwanted imagesChanging the color of photosConverting images to black and whiteCropping images nondestructivelySaving your Photoshop files7. Getting Started with InDesignGetting started with InDesignCreating a wireframe in InDesignImporting graphics into InDesignAdjusting the fit of graphicsCreating master pages in InDesignImporting color swatches into InDesignImporting text documents into InDesignCreating styles in IndesignWorking with tabs in InDesignCreating tables in InDesignAdding the final touches to your designSaving and exporting your final project8. Final ProjectExploring your final projectSharing your work and getting feedbackConclusionTaking the next stepGoodbye
Design & Stop Motion with SNASK
Meet SNASK1m 43sMeet SNASK 1m 43sDesign Tips & Tricks21m 34sSecrets of Oumph! 6m 26sCowboy Design Tips 1m 15sTypeface Tips and Tricks with Ms. Foil 6m 30sMac Shortcuts with Mr. Crayon 1m 29sBranding with Ms. Foil 3m 42sColors with Mr. Crayon 2m 9sPiggy Pette's... see more Homework Sessions4m 47sMake Enemies and Gain Fans 1m 46sFake It 'Til You Make It 1m 23sDare to Be Bolds 1m 36sThe Breakdown of Stop Motion11m 51sA Dragon's Equipment 1m 39sThe 7 Steps of Stop Motion 0m 43sIdea 0m 56sStoryboarding 0m 59sAnimatic 1m 14sProp Design & Construction 0m 55sSetting Up 5m 21sWorking in Dragonframe25m 25sFrom Dragon Cave to Dragon Frame 2m 34sSetting up Your Shot 4m 42sShooting in the Animation Window 3m 29sConforming the Animation 2m 3sAnimating 2m 23sRobot Steve Learns to Fly 3m 43sA Robot Pops up and Sinks 4m 31sPost Production 1m 57sA Debate & Breakdown of Stop Motion17m 27sThe Dog Boys on Frame Rates and Lighting 4m 43sFisherman & Fish 12m 44s
GeneralUnique ID : 222409852438423273928246550887380163945 (0xA752945864F375A8B52ABF4BF77A1D69)Complete name : E:\MasterChef.Junior.S05E01.720p.ViruseProject.mkvFormat : MatroskaFormat version : Version 4 / Version 2File size : 1.03 GiBDuration : 43 min 10 sOverall bit rate : 3 417 kb/sEncoded date :... see more UTC 2017-03-28 09:05:25Writing application : mkvmerge v8.3.0 ('Over the Horizon') 64bitWriting library : libebml v1.3.1 + libmatroska v1.4.2VideoID : 1Format : AVCFormat/Info : Advanced Video CodecFormat profile : High@L3.1Format settings, CABAC : YesFormat settings, ReFrames : 3 framesCodec ID : V_MPEG4/ISO/AVCDuration : 43 min 9 sBit rate : 3 224 kb/sWidth : 1 280 pixelsHeight : 720 pixelsDisplay aspect ratio : 16:9Frame rate mode : ConstantFrame rate : 23.976 (24000/1001) FPSColor space : YUVChroma subsampling : 4:2:0Bit depth : 8 bitsScan type : ProgressiveBits/(Pixel*Frame) : 0.146Stream size : 995 MiB (94%)Writing library : x264 core 79 r1342kMod e8501efEncoding settings : cabac=1 / ref=3 / deblock=1:0:0 / analyse=0x3:0x113 / me=hex / subme=7 / psy=1 / psy_rd=1.0:0.0 / mixed_ref=1 / me_range=16 / chroma_me=1 / trellis=1 / 8x8dct=1 / cqm=0 / deadzone=21,11 / chroma_qp_offset=-2 / threads=12 / nr=0 / decimate=1 / mbaff=0 / constrained_intra=0 / bframes=3 / b_pyramid=0 / b_adapt=1 / b_bias=0 / direct=1 / wpredb=1 / wpredp=2 / keyint=250 / keyint_min=25 / scenecut=40 / rc_lookahead=40 / rc=2pass / mbtree=1 / bitrate=3224 / ratetol=1.0 / qcomp=0.60 / qpmin=10 / qpmax=51 / qpstep=4 / cplxblur=20.0 / qblur=0.5 / ip_ratio=1.40 / aq=1:1.00Default : YesForced : NoAudioID : 2Format : AACFormat/Info : Advanced Audio CodecFormat profile : LCCodec ID : A_AACDuration : 43 min 10 sBit rate : 192 kb/sChannel(s) : 2 channelsChannel positions : Front: L RSampling rate : 48.0 kHzFrame rate : 46.875 FPS (1024 spf)Compression mode : LossyStream size : 59.3 MiB (6%)Title : ViruseProjectLanguage : RussianDefault : YesForced : No
GeneralFormat : MPEG-TSFile size : 1.04 GiBDuration : 59mn 57sOverall bit rate mode : VariableOverall bit rate : 2 489 KbpsVideoID : 256 (0x100)Menu ID : 1 (0x1)Format : AVCFormat/Info : Advanced Video CodecFormat profile : High@L3Format settings, CABAC : YesFormat settings, ReFrames : 4 framesCodec... see more ID : 27Duration : 59mn 56sWidth : 720 pixelsHeight : 576 pixelsDisplay aspect ratio : 16:9Frame rate : 25.000 fpsStandard : PALColor space : YUVChroma subsampling : 4:2:0Bit depth : 8 bitsScan type : InterlacedScan order : Bottom Field FirstColor range : LimitedColor primaries : BT.601 PALTransfer characteristics : BT.470 System B, BT.470 System GMatrix coefficients : BT.601Audio #1ID : 257 (0x101)Menu ID : 1 (0x1)Format : AACFormat/Info : Advanced Audio CodecFormat version : Version 4Format profile : LCMuxing mode : ADTSCodec ID : 15Duration : 59mn 57sBit rate mode : VariableChannel(s) : 2 channelsChannel positions : Front: L RSampling rate : 44.1 KHzCompression mode : LossyDelay relative to video : -154msLanguage : RussianAudio #2ID : 258 (0x102)Menu ID : 1 (0x1)Format : AACFormat/Info : Advanced Audio CodecFormat version : Version 4Format profile : LCMuxing mode : ADTSCodec ID : 15Duration : 59mn 57sBit rate mode : VariableChannel(s) : 2 channelsChannel positions : Front: L RSampling rate : 44.1 KHzCompression mode : LossyDelay relative to video : -150msLanguage : EnglishMenuID : 4096 (0x1000)Menu ID : 1 (0x1)Duration : 59mn 57sList : 256 (0x100) (AVC) / 257 (0x101) (AAC, Russian) / 258 (0x102) (AAC, English)Language : / Russian / EnglishService name : Service01Service provider : FFmpegService type : digital television
Season 20092009-10-25 - lamb chops with onions 2009-11-22 - Baked meat with potatoes 2009-12-27 - skewers of beef and mutton Season 2010 2010-02-07 - sea bream with vegetables and herbs2010-03- 14 - rice with spices 2010-03-28 - Gizo-byz 2010-04-04 - CHICKEN NOODLES 2010-05-30 - kebab2010-06-20 - Gizo... see more lamb stew with vegetables 2010-06-27 - SHASHLYK of stuffed vegetables 2010-09-12 - pilaf with nuts and dried fruits 2010-10-10 - Basma 2010-10-31 - shurpa 2010-11-21 - pilaf with pumpkin2010-12-19 - quince stuffed in Kokand 2011 season 2011-03-20 - SHASHLYK liver 2011-06-26 - FERGHANA pilaf 2011-07-03 - SHASHLYK from groin-groin 2011-08-21 - SHASHLYK 'Five finger '' 2011-09-04 - ABB's Far East 2011-09-11 - Bakhsh - pilau Bukhara Jews 2011-09-25 - Fish with cilantro and garlic 2011-10-16 - kyufta-bozbash - lamb soup 2011-11 -06 - BAKED bars with shurpa 2011-11-13 - kyufta lamb with peaches2011-12-04 - Indian curries - chicken with rice 2011-12-11 - MASHHURDA - Uzbek soup 2011-12-18 - Shavlo with HASYPOM - Uzbek porridge with sausage 2011-12-25 - Baranja KIDNEY Uighur Season 2012 2012-03-04 - great lunch. 2012-04-30 - Cooking good kebab 2012-05-13 - Fish - Pizza. 2012-05-20 - OLC - kyu. 2012-06-03 - CHICKEN lyavangi. 2012-08-12 - SOUP PETE of Sheki 2012-08-19 - skewers of duck breast and pineapple 09/09/2012 - Lamb marinated peaches 2012-09-30 - Minced potato 11/04/2012 - Cooking in Tajima 25.11.2012 - Uzbek SALAD 12/23/2012 - Crimean pasties 2012-12-31 - Stuffed turkey season 201301.27.2013 - Roast duck 02/03/2013 - Dalma 02/17/2013 - Skewers of chicken 24/02/2013 - Chickens tobacco 10/03/2013 - Lamb stuffed with pilaf 17/03/2013 - Dymlyama 03/24/2013 - Jamila 03/31/2013 - Braised cabbage 04.07.2013 - Strudel 04/14/2013 - Lagman 21/04/2013 - Meatless pilaf 05/05/2013 - Kaurmusha 12.5.2013 - Kebab in kazan 05.19.2013 - Khashlama 09/06/2013 - Skewers of cells ykacha.09/01/2013 - Kebab 09/08/2013 - Pickles 22/09/2013 - liver with vegetables 29/09/2013 - Pilaf with quince10.13.2013 - Chicken breast with lemon 27/10/2013 - Stuffed vegetables 11/17/2013 - Hummus 12/08/2013 - Mashhurda 15/12/2013 - Bishbarmak 29/12/2013 - Gala dinner Season 2014 01.19.2014 - Steaks02/02/2014 - Paella 2014- 02-23 - Meatloaf 09/03/2014 - pilaf with buckwheat 03/23/2014 - Esik-Fleisch04.06.2014 - Beef Stroganoff 27/04/2014 - Halva 05/18/2014 - beans with ham 05/25/2014 - Samarkand pilaf 07/06/2014 - baklava 09.14.2014 - Azerbaijan pilaf sabzi-govurma 10.12.2014 - Prepare for dumlyamu new book Kazan. Culinary tutorial 26/10/2014 - Sultanma 16.11.2014 - Hush 11/23/2014 - Pilaf on scientific11/30/2014 - Skewers of trout season 2015 01.18.2015 - Skewers of catfish 25/01/2015 - Skewer of veal08/02/2015 - Dovga 02/22/2015 - Crown of lamb 08.03.2015 - Cake Napoleon 29/03/2015 - roulade of lamb leg 04.19.2015 - Borsch in a cauldron 2015-04 -26 - Manta 05/03/2015-marbled meat 05/11/2015 - Dolma from quail 17/05/2015 - fake lamb 31.05.2015 -Shashlyk vegetables 07.05.2015 -Ovoschnaya casserole2015-08- 30 - Roast lamb with POTATO 10.04.2015 - Govurma 04.11.2015 - Han - pilaf 11.08.2015 - risotto pumpkin 11.29.2015 - Kus cous 06.12.2015 - Samsa bone 2015 -12-27 - Ro zhdestvensky Goose Season 2016 24.01.2016 -Barani shank with candied fruit 01/31/2016 - Juicy roast beef. 03/13/2016 - liver pâté.04/24/2016 - Pilaf with dolma and eggs 05.15.2016 - Kyufta in Berber 19/06/2016 - Samsa in Moroccan09.25.2016 - Moroccan spinach salad 23/10/2016 - Language po- Moroccan. 30/10/2016 - Shurpa with quail13/11/2016 - Meat in Korean 11.27.2016 - Quick and tasty 12/04/2016 - pilaf with mushrooms 11.12.2016 - Harira - Moroccan soup 2017-01 -29 - preparation principle. 05/02/2017 - Pilaf duck 12/02/2017 - Chicken Tajin 26.03.2017 - Bisque of crayfish 04.02.2017 - In the kitchen Stalik. 09/04/2017 - Beef tail of Moroccan.04/16/2017 - cabbage rolls and stuffed peppers
Public Feed
Beginner
 
5 votes (55.56%)
Intermediate
 
0 votes (0%)
Expert
 
3 votes (33.33%)
I know the concept but never worked
 
0 votes (0%)
I don't know about cisco ACI
 
1 votes (11.11%)
R&S lab exam | may 2017 update | A5 variation
Acoustic Guitar Lessons: 2 Scales, Walking Bass, Hammer-Ons, and Pull-Offs
Introduction1. Scales and Chord Theory2. Walking Bass and Reading Tablature3. Hammer-Ons, Pull-Offs, and Slides4. Basic Bluegrass Tunes 24. Basic Bluegrass Tunes 2Conclusion
The Total Beginner's Guitar Course
└── 01 The Total Beginners Guitar Course├── 001 Introduction - Welcome.mp4├── 002 What Kind Of Guitar Should You Buy.mp4├── 003 Parts Of The Guitar.mp4├── 004 What Else Do You Need.mp4├── 005 Lets Get Started Playing.mp4├──... see more 006 Tuning Your Guitar.mp4├── 007 Finger Exercises.mp4├── 008 First Chords.mp4├── 009 Strumming And Transitions.mp4├── 010 Music Theory 101 - Intervals.mp4├── 011 Power Chords.mp4├── 012 Tone 101 - Distortion.mp4├── 013 Music theory 102 - Playing In Key.mp4├── 014 Technique 102 - Palm Muting.mp4├── 015 Tone 102 - Reverb.mp4├── 016 Final Summary And Free Bonus Material.mp4└── attached_files├── 001 Introduction - Welcome│ └── Guitargate-1.1-Welcome-and-Intro.pdf├── 002 What Kind Of Guitar Should You Buy│ └── Guitargate-1.2-What-Kind-Of-Guitar-Should-You-Buy.pdf├── 003 Parts Of The Guitar│ └── Guitargate-1.3-Parts-Of-The-Guitar.pdf├── 004 What Else Do You Need│ └── Guitargate-1.4-What-Else-Do-I-Need.pdf├── 005 Lets Get Started Playing│ └── Guitargate-1.5-Get-Started-Playing.pdf├── 006 Tuning Your Guitar│ └── Guitargate-1.6-Tuning-Your-Guitar.pdf├── 007 Finger Exercises│ └── Guitargate-1.7-Technique-101-Finger-Exercises.pdf├── 008 First Chords│ └── Guitargate-1.8-Introduction-To-Chords.pdf├── 009 Strumming And Transitions│ └── Guitargate-1.9-Rhythm-101-Strumming-And-Transitions.pdf├── 010 Music Theory 101 - Intervals│ └── Guitargate-1.10-Music-Theory-101-Intervals.pdf├── 011 Power Chords│ └── Guitargate-1.11-Rhythm-102-Power-Chords.pdf├── 012 Tone 101 - Distortion│ └── Guitargate-1.12-Tone-101-Distortion.pdf├── 013 Music theory 102 - Playing In Key│ └── Guitargate-1.13-Music-Theory-102-Playing-In-Key.pdf├── 014 Technique 102 - Palm Muting│ └── Guitargate-1.14-Technique-102-Palm-Muting.pdf├── 015 Tone 102 - Reverb│ └── Guitargate-1.15-Tone-102-Reverb.pdf└── 016 Final Summary And Free Bonus Material└── Guitarate-1.16-Level-1-Wrap-Up-Udemy.pdf
├── 01 Introduction│ └── 001 Welcome.mp4├── 02 Developing a good position│ ├── 002 Developing a good position.mp4│ ├── 003 Fingering.mp4│ ├── 004 Preparatory Exercise.mp4│ ├── 005 Articulation.mp4│ ├── 006 C Major Scale.mp4│ └── 007... see more Complete Routine.mp4├── 03 Music Theory│ ├── 008 Notes.mp4│ ├── 009 Rhythmical Figures..mp4│ └── 010 Theory Musical accidents.mp4├── 04 Reading and playing treble Clef│ ├── 011 Reading Music.mp4│ ├── 012 Treble Clef Exercise 1.mp4│ ├── 013 Treble Clef Exercise 2.mp4│ ├── 014 Treble Clef Exercise 3.mp4│ ├── 015 Treble Clef Exercise 4.mp4│ ├── 016 Treble Clef Exercise 5.mp4│ └── attached_files│ ├── 012 Treble Clef Exercise 1│ │ └── Treble-Clef-Excercise-1.jpeg│ ├── 013 Treble Clef Exercise 2│ │ └── Treble-Clef-Excercise-2.jpeg│ ├── 014 Treble Clef Exercise 3│ │ └── Treble-Clef-Excercise-3.jpeg│ ├── 015 Treble Clef Exercise 4│ │ └── Treble-Clef-Excercise-4.jpeg│ └── 016 Treble Clef Exercise 5│ └── Treble-Clef-Excercise-5.jpeg├── 05 Reading and playing bass clef│ ├── 017 Bass Clef Exercise 1.mp4│ ├── 018 Bass Clef Exercise 2.mp4│ ├── 019 Bass Clef Exercise 3.mp4│ ├── 020 Bass Clef Exercise 4.mp4│ ├── 021 Bass Clef Exercise 5.mp4│ └── attached_files│ ├── 017 Bass Clef Exercise 1│ │ └── Bass-Clef-Excercise-1.jpeg│ ├── 018 Bass Clef Exercise 2│ │ └── Bass-Clef-Excercise-2.jpeg│ └── 019 Bass Clef Exercise 3│ └── Bass-Clef-Excercise-3.jpeg├── 06 Reading and playing with both hands│ ├── 022 Both Hands Exercise 1.mp4│ ├── 023 Both Hands Exercise 2.mp4│ ├── 024 Both Hands Exercise 3.mp4│ ├── 025 Ode to Joy -Part I-.mp4│ └── 026 Ode to Joy -Part II-.mp4├── 07 General information about studying piano│ ├── 027 General Information.mp4│ ├── 028 Finding an Instrument.mp4│ ├── 029 Finding a Teacher.mp4│ ├── 030 Types of schools.mp4│ ├── 031 Online Lessons.mp4│ └── 032 Study Routine.mp4├── 08 Congratulations│ └── 033 Congratulations.mp4└── 09 Bonus Lecture└── 034 About website courses and discounts..html
Pianoforall - Incredible New Way To Learn Piano & Keyboard
01 - Party Time - Play By Ear - Rhythm Style Piano02 - Blues and Rock n Roll03 - Chord Magic04 - Advanced Chords Made easy05 - Ballad Style06 - Jazz Piano Made Easy07 - Advanced Blues Fake Stride08 - Taming The Classics09 - Speed learning10... see more - Books (pdf)
The Complete Piano Course - Master The Piano
01 Introduction02 Piano Knowledge03 Music Theory04 Preperation05 Basic Introduction06 Basic Scales07 Basic Chords08 Basic Arpeggios09 Basic Improvisation10 Intermediate Scales11 Intermediate Chords12 Intermediate Arpeggios13 Intermediate Improvisation14 Advanced... see more Scales15 Advanced Chords16 Advanced Arpeggios17 Advanced Improvisation18 Conclusion
Part 1. Framework Laravel. Theory and features of the framework. 01 Introduction 02 Installing Homestead 03 Installing framework on OpenServer 04 file structure of the framework 05 of the framework settings 06 Operating principle of the framework 07 route registration methods. Part 1 08 route registration... see more methods. Part 2 09 Controllers 10 classes intermediary 11 Types 12 templating Blade. Part 1 13 templating Blade. Part 2 14 classes Request 15 Formation response. Response Class 16 Migration 17 Data Seeding 18 SQL-query 19, Query Designer 20 Using models. Part 1 21 Using models. Part 2 22 of the Implementing relationships between tables 23 Manipulation of related records 24 Other methods for working with connections 25 Data Validation. Part 1 26 Data Validation. Part 2 27 Communications validation errors 28 Authentication polzovateley.Chast 1 29 User Authentication. Part 2 30 Methods facade Auth 31 Authorization members 32 classes of authorization policies 33 Sessions 34 Event processing 35 Localization 36 contracts 37 service providers 38 Service container 39 facadesPart 2. The framework Laravel. Creating a Landing Page. 01 Introduction. Setting the framework 02 Creating database tables 03 Creating Routes 04 Creating a master controller and type 05 Creating models. Sample data from the database tables 06 Display the selected On-Screen display 07 Completion of the form of the main page 08 The mechanism of sending e-mail messages 09 page material 10 standard authentication mechanism 11 Adding forms a new material 12 Logic preserve records in a database table 13 editing material Form 14 Updating information database 15 content removal. ConclusionPart 3: Framework Laravel. Creating a corporate website. 01 Introduction. Setting the framework 02 Creating a database 03 Routes. Global Controller user of the 04 sample data for the main menu of the project 05 Displaying the main menu on the screen 06 Create a slider 07 Formation on the main page content. Part 1 08 Formation of the content on the main page. Part 2 09 Display right side bar of the home page 10 of the draft Localization 11 Home Blog section 12 of missing models. Display on the screen material 13 controls page navigation 14 Right Side bar Blog section 15 Finalization of sidebar. Optimization of the blog page 16 page single blog material. Part 1 of 17 total Page separate blog material. Part 2 18 comment block 19 Form add a new comment 20 Saving a new comment in the database 21, display on the screen of the added comments. Part 1 22 display on the screen of the added comments. Part 2 of 23 total Page list works portfolio 24 page detailed view portfolio of work 25 Page Contacts 26 Page 404 27 Authentication page 28 Home Admin panel 29 Rights and privileges on 30 Method of verification of user rights 31 Home section Materials Management 32 Adding a form of new material 33 Saving new material to the database. Part 1 34 Save the new material into the database. Part 2 35 Form editing material 36 Updating the material 37 removal of materials 38 Page edit user rights 39 Update information about user rights 40 menu Section 41 The page for adding a new paragraph 42 Saving new reference 43 page edit screen 44 Updating and Deleting data menu links 45 section of the user 46 conclusionBonuses: Bonus 1. Premium rate. Course on PHP Programming Bonus 2. Premium rate. The PHP OOP Course (object-oriented programming in PHP) Bonus 3 Premium Course. On MySQL Database Course Bonus 4. Caching Laravel Bonus 5. Transfer website hosting
Photoshop CC 2017 for Photographers
├── 001 Welcome.mp4├── 002 Getting the most out of this course.mp4├── 003 Using the exercise files.mp4├── 004 Before and after views of images.mp4├── 005 Photoshop's role in today's workflow.mp4├── 006 Accessing your images with... see more Bridge.mp4├── 007 Getting started with Lightroom.mp4├── 008 Setting up your color settings.mp4├── 009 Fine-tuning your preferences.mp4├── 010 Choosing and customizing a workspace.mp4├── 011 What is Camera Raw_.mp4├── 012 Camera Raw and Photoshop case study.mp4├── 013 Opening images into Camera Raw.mp4├── 014 Improving your images with the basics.mp4├── 015 Using the Start workspace.mp4├── 016 Opening, saving, and closing a photograph.mp4├── 017 Getting familiar with the interface.mp4├── 018 Using tools and undoing mistakes.mp4├── 019 Zooming and panning on your photos.mp4├── 020 Expert zooming and panning tips.mp4├── 021 Choosing and changing the screen mode.mp4├── 022 Arranging and viewing multiple documents.mp4├── 023 Pixels and image sizing.mp4├── 024 Resizing an image to a smaller size.mp4├── 025 Exporting for email and social media.mp4├── 026 Challenge - Resizing a photo for print and online.mp4├── 027 Solution - Resizing a photo for print and online.mp4├── 028 Mastering the Crop tool.mp4├── 029 Cropping and straightening your photos.mp4├── 030 Fixing a crooked image.mp4├── 031 Cropping projects.mp4├── 032 Challenge - Level and resize a photo to make a 5x5 print.mp4├── 033 Solution - Level and resize a photo to make a 5x5 print.mp4├── 034 Why layers matter.mp4├── 035 Creative layers case study.mp4├── 036 Creating new blank layers.mp4├── 037 Working with type layers.mp4├── 038 Improving color with adjustment layers.mp4├── 039 Applying layer style effects.mp4├── 040 Combining multiple images into one document.mp4├── 041 Combining multiple images and creating a color border.mp4├── 042 Organizing layers into groups.mp4├── 043 Challenge - Using layers.mp4├── 044 Solution - Using layers.mp4├── 045 Adding brightness and contrast.mp4├── 046 Fixing exposure with Levels.mp4├── 047 Fine-tuning an image with Curves.mp4├── 048 Fixing an underexposed image.mp4├── 049 Correcting exposure with Camera Raw as a Smart Filter.mp4├── 050 Challenge - Correcting exposure.mp4├── 051 Solution - Correcting exposure.mp4├── 052 Using the Elliptical Marquee tool to make a selection.mp4├── 053 Selecting and changing a rectangular area.mp4├── 054 Selecting with the Lasso tools.mp4├── 055 Working with the Quick Select tool.mp4├── 056 Quick Select project workflow.mp4├── 057 Making a selection with Focus Area.mp4├── 058 Challenge - Selecting the subject from the background.mp4├── 059 Solution - Selecting the subject from the background.mp4├── 060 Introducing masks.mp4├── 061 Improving an image with custom masks.mp4├── 062 Feathering a mask.mp4├── 063 Using a gradient mask to fix exposure.mp4├── 064 Copying a mask to save time.mp4├── 065 Challenge - Creating a color effect.mp4├── 066 Solution - Creating a color effect.mp4├── 067 Changing colors in Camera Raw.mp4├── 068 Creative color adjustments with Camera Raw.mp4├── 069 Fine-tuning color with Hue and Saturation.mp4├── 070 Using Hue and Saturation with masking.mp4├── 071 Changing the color of a dress.mp4├── 072 Two steps to creating vivid and beautiful color.mp4├── 073 Using Color Balance to create vivid color.mp4├── 074 Challenge - Advanced work with brightness and color.mp4├── 075 Solution - Advanced work with brightness and color.mp4├── 076 Converting to black and white with Camera Raw.mp4├── 077 Making a strong black-and-white portrait.mp4├── 078 Creating better black-and-white landscape photographs.mp4├── 079 Creating a black-and-white film grain effect.mp4├── 080 Making more dramatic black-and-white images.mp4├── 081 Challenge - Black-and-white landscape.mp4├── 082 Solution - Black-and-white landscape.mp4├── 083 Adding lens flare.mp4├── 084 Changing focus with the Blur Gallery.mp4├── 085 Creating a tilt-shift blur effect.mp4├── 086 Adding a creative blur to a portrait.mp4├── 087 Adding light with lighting effects.mp4├── 088 Challenge - Adding blur.mp4├── 089 Solution - Adding blur.mp4├── 090 Sharpening with Camera Raw.mp4├── 091 Reducing unwanted noise in Camera Raw.mp4├── 092 Reducing unwanted noise with high-res files.mp4├── 093 Reducing unwanted noise in Photoshop.mp4├── 094 Sharpening your photos with Smart Sharpen.mp4├── 095 Sharpening a multilayered document.mp4├── 096 Using Focus Area to select the area to sharpen.mp4├── 097 Selective sharpening with Smart Sharpen.mp4├── 098 Challenge - Selective sharpening.mp4├── 099 Solution - Selective sharpening.mp4├── 100 Using Content-Aware Fill to remove distractions.mp4├── 101 Removing an object with Clone Stamp.mp4├── 102 Quick results with the Spot Healing tool.mp4├── 103 Seamless retouching with the Healing tools.mp4├── 104 Fixing a large area with the Patch tool.mp4├── 105 Increasing image content with Content-Aware Scale.mp4├── 106 Challenge - Removing a large object.mp4├── 107 Solution - Removing a large object.mp4├── 108 Improving skin with the Healing Brush tools.mp4├── 109 Wrinkle reduction.mp4├── 110 Whitening teeth with adjustment layers.mp4├── 111 Changing facial structure with Liquify.mp4├── 112 Changing shape with Liquify.mp4├── 113 Brightening the eyes.mp4├── 114 Improving eye shadows.mp4├── 115 Challenge - Creating more beautiful skin.mp4├── 116 Solution - Creating more beautiful skin.mp4├── 117 Getting ready to print - Resizing.mp4├── 118 Sharpening and brightening for final output.mp4├── 119 Selecting your printer and paper size.mp4├── 120 Choosing color management and printer settings.mp4├── 121 Next steps.mp4└── Ex_Files_PS_CC2017_Photographers.zip
Up and Running with Astute Graphics for Illustrator
├── 001 Welcome.mp4├── 002 Using the exercise files.mp4├── 003 What can you do with the Astute Graphics plugins_.mp4├── 004 Installing the Astute Graphics plugins.mp4├── 005 Overview.mp4├── 006 Working with dynamic... see more corners.mp4├── 007 Working with dynamic shapes.mp4├── 008 Editing paths with PathScribe.mp4├── 009 Using the Extend Path tool.mp4├── 010 Using the Smart Remove Brush tool.mp4├── 011 Using the Dynamic Measure tool.mp4├── 012 Using the Protractor panel.mp4├── 013 Connecting and straightening objects.mp4├── 014 Drawing tangents and perpendiculars.mp4├── 015 Drawing circles and arcs.mp4├── 016 Using the Snap to Collisions tool.mp4├── 017 Using the Rotate at Collision tool.mp4├── 018 Using the collision spacing.mp4├── 019 Mirroring artwork.mp4├── 020 Drawing with symmetry.mp4├── 021 Mirroring text and images.mp4├── 022 Adjusting colors with filters and effects.mp4├── 023 Creating vector halftones.mp4├── 024 Applying effects to photos.mp4├── 025 Drawing with InkScribe.mp4├── 026 Editing path segments with InkScribe.mp4├── 027 Adding, removing, and changing points with InkScribe.mp4├── 028 Drawing and modifying paths.mp4├── 029 Using Repeat Sketch.mp4├── 030 Using Intelligent Join.mp4├── 031 Using Gesture Trim.mp4├── 032 Using the Width Brush tool.mp4├── 033 Using the Width Gradient tool.mp4├── 034 Using the Width Selector tool.mp4├── 035 Using advanced controls for width markers.mp4├── 036 Using the Width Stamp panel.mp4├── 037 Using Width Stamp presets.mp4├── 038 Using custom contours.mp4├── 039 Overview.mp4├── 040 Working with drop shadows.mp4├── 041 Working with feathering.mp4├── 042 Working with Inner Glow and Outer Glow.mp4├── 043 Working with Transform effects.mp4├── 044 Working with Free Distort effects.mp4├── 045 Working with Offset Path.mp4├── 046 Working with Gaussian Blur.mp4├── 047 Configuring autosaves and backups.mp4├── 048 Understanding stippling.mp4├── 049 Use the stipple controls.mp4├── 050 Stippling vectors.mp4├── 051 Stippling text.mp4├── 052 Stippling photos.mp4├── 053 Create stipple effects with symbols.mp4├── 054 Understanding symbol stipple settings.mp4├── 055 Symbol registration points.mp4├── 056 Texturino overview.mp4├── 057 Using the Opacity Brush.mp4├── 058 Applying and editing texture effects.mp4├── 059 Combining multiple textures.mp4├── 060 Importing textures.mp4├── 061 Applying textures with graphics styles.mp4├── 062 Creating effects with Knockout mode.mp4├── 063 Using the Texture Manager.mp4├── 064 Using the Texture Brush.mp4├── 065 Converting embedded images to textures.mp4├── 066 Distorting textures.mp4├── 067 Packaging textures for collaboration.mp4├── 068 Next steps.mp4└── Ex_Files_UaR_Astute_Graphics.zip
Introduction to Graphic Design
IntroductionWelcomeHow to send feedbackChallenges explainedGetting to know your toolsIntroduction to the project(s)1. Core ConceptsWhat is graphic design?What makes a design great?Exploring the principles of layout and composition2. Introduction to TypographyWhat is typography?Understanding... see more fonts and typefacesExploring the anatomy of typeLearning the terminology of typeExploring the rules of typographyPairing typefaces for maximum impactFinding new typefaces for your projectsChallenge: Choosing a typefaceSolution: Choosing a typeface3. Introduction to ColorExploring the psychology of colorUnderstanding the rules of colorRGB vs. CMYK explainedChoosing the right colors for your designsChallenge: Create a color schemeSolution: Create a color scheme4. Planning Your ProjectUnderstanding the needs of your clientBrainstorming with thumbnail sketchesExploring your thumbnail sketchesChallenge: Planning your projectSolution: Planning your project5. Getting Started with IllustratorGetting started with IllustratorDrawing basic shapes for your logoCombining shapes togetherDrawing complex shapesSetting type in IllustratorAdding color to your artworkTracing raster graphics using Image TraceCreating patterns and gradientsSaving your Illustrator artwork6. Getting Started with PhotoshopGetting started with PhotoshopMaking selectionsWorking with layer masksChallenge: MaskingSolution: MaskingCombining two images togetherRemoving unwanted imagesChanging the color of photosConverting images to black and whiteCropping images nondestructivelySaving your Photoshop files7. Getting Started with InDesignGetting started with InDesignCreating a wireframe in InDesignImporting graphics into InDesignAdjusting the fit of graphicsCreating master pages in InDesignImporting color swatches into InDesignImporting text documents into InDesignCreating styles in IndesignWorking with tabs in InDesignCreating tables in InDesignAdding the final touches to your designSaving and exporting your final project8. Final ProjectExploring your final projectSharing your work and getting feedbackConclusionTaking the next stepGoodbye
Design & Stop Motion with SNASK
Meet SNASK1m 43sMeet SNASK 1m 43sDesign Tips & Tricks21m 34sSecrets of Oumph! 6m 26sCowboy Design Tips 1m 15sTypeface Tips and Tricks with Ms. Foil 6m 30sMac Shortcuts with Mr. Crayon 1m 29sBranding with Ms. Foil 3m 42sColors with Mr. Crayon 2m 9sPiggy Pette's... see more Homework Sessions4m 47sMake Enemies and Gain Fans 1m 46sFake It 'Til You Make It 1m 23sDare to Be Bolds 1m 36sThe Breakdown of Stop Motion11m 51sA Dragon's Equipment 1m 39sThe 7 Steps of Stop Motion 0m 43sIdea 0m 56sStoryboarding 0m 59sAnimatic 1m 14sProp Design & Construction 0m 55sSetting Up 5m 21sWorking in Dragonframe25m 25sFrom Dragon Cave to Dragon Frame 2m 34sSetting up Your Shot 4m 42sShooting in the Animation Window 3m 29sConforming the Animation 2m 3sAnimating 2m 23sRobot Steve Learns to Fly 3m 43sA Robot Pops up and Sinks 4m 31sPost Production 1m 57sA Debate & Breakdown of Stop Motion17m 27sThe Dog Boys on Frame Rates and Lighting 4m 43sFisherman & Fish 12m 44s
GeneralUnique ID : 222409852438423273928246550887380163945 (0xA752945864F375A8B52ABF4BF77A1D69)Complete name : E:\MasterChef.Junior.S05E01.720p.ViruseProject.mkvFormat : MatroskaFormat version : Version 4 / Version 2File size : 1.03 GiBDuration : 43 min 10 sOverall bit rate : 3 417 kb/sEncoded date :... see more UTC 2017-03-28 09:05:25Writing application : mkvmerge v8.3.0 ('Over the Horizon') 64bitWriting library : libebml v1.3.1 + libmatroska v1.4.2VideoID : 1Format : AVCFormat/Info : Advanced Video CodecFormat profile : High@L3.1Format settings, CABAC : YesFormat settings, ReFrames : 3 framesCodec ID : V_MPEG4/ISO/AVCDuration : 43 min 9 sBit rate : 3 224 kb/sWidth : 1 280 pixelsHeight : 720 pixelsDisplay aspect ratio : 16:9Frame rate mode : ConstantFrame rate : 23.976 (24000/1001) FPSColor space : YUVChroma subsampling : 4:2:0Bit depth : 8 bitsScan type : ProgressiveBits/(Pixel*Frame) : 0.146Stream size : 995 MiB (94%)Writing library : x264 core 79 r1342kMod e8501efEncoding settings : cabac=1 / ref=3 / deblock=1:0:0 / analyse=0x3:0x113 / me=hex / subme=7 / psy=1 / psy_rd=1.0:0.0 / mixed_ref=1 / me_range=16 / chroma_me=1 / trellis=1 / 8x8dct=1 / cqm=0 / deadzone=21,11 / chroma_qp_offset=-2 / threads=12 / nr=0 / decimate=1 / mbaff=0 / constrained_intra=0 / bframes=3 / b_pyramid=0 / b_adapt=1 / b_bias=0 / direct=1 / wpredb=1 / wpredp=2 / keyint=250 / keyint_min=25 / scenecut=40 / rc_lookahead=40 / rc=2pass / mbtree=1 / bitrate=3224 / ratetol=1.0 / qcomp=0.60 / qpmin=10 / qpmax=51 / qpstep=4 / cplxblur=20.0 / qblur=0.5 / ip_ratio=1.40 / aq=1:1.00Default : YesForced : NoAudioID : 2Format : AACFormat/Info : Advanced Audio CodecFormat profile : LCCodec ID : A_AACDuration : 43 min 10 sBit rate : 192 kb/sChannel(s) : 2 channelsChannel positions : Front: L RSampling rate : 48.0 kHzFrame rate : 46.875 FPS (1024 spf)Compression mode : LossyStream size : 59.3 MiB (6%)Title : ViruseProjectLanguage : RussianDefault : YesForced : No
GeneralFormat : MPEG-TSFile size : 1.04 GiBDuration : 59mn 57sOverall bit rate mode : VariableOverall bit rate : 2 489 KbpsVideoID : 256 (0x100)Menu ID : 1 (0x1)Format : AVCFormat/Info : Advanced Video CodecFormat profile : High@L3Format settings, CABAC : YesFormat settings, ReFrames : 4 framesCodec... see more ID : 27Duration : 59mn 56sWidth : 720 pixelsHeight : 576 pixelsDisplay aspect ratio : 16:9Frame rate : 25.000 fpsStandard : PALColor space : YUVChroma subsampling : 4:2:0Bit depth : 8 bitsScan type : InterlacedScan order : Bottom Field FirstColor range : LimitedColor primaries : BT.601 PALTransfer characteristics : BT.470 System B, BT.470 System GMatrix coefficients : BT.601Audio #1ID : 257 (0x101)Menu ID : 1 (0x1)Format : AACFormat/Info : Advanced Audio CodecFormat version : Version 4Format profile : LCMuxing mode : ADTSCodec ID : 15Duration : 59mn 57sBit rate mode : VariableChannel(s) : 2 channelsChannel positions : Front: L RSampling rate : 44.1 KHzCompression mode : LossyDelay relative to video : -154msLanguage : RussianAudio #2ID : 258 (0x102)Menu ID : 1 (0x1)Format : AACFormat/Info : Advanced Audio CodecFormat version : Version 4Format profile : LCMuxing mode : ADTSCodec ID : 15Duration : 59mn 57sBit rate mode : VariableChannel(s) : 2 channelsChannel positions : Front: L RSampling rate : 44.1 KHzCompression mode : LossyDelay relative to video : -150msLanguage : EnglishMenuID : 4096 (0x1000)Menu ID : 1 (0x1)Duration : 59mn 57sList : 256 (0x100) (AVC) / 257 (0x101) (AAC, Russian) / 258 (0x102) (AAC, English)Language : / Russian / EnglishService name : Service01Service provider : FFmpegService type : digital television
Season 20092009-10-25 - lamb chops with onions 2009-11-22 - Baked meat with potatoes 2009-12-27 - skewers of beef and mutton Season 2010 2010-02-07 - sea bream with vegetables and herbs2010-03- 14 - rice with spices 2010-03-28 - Gizo-byz 2010-04-04 - CHICKEN NOODLES 2010-05-30 - kebab2010-06-20 - Gizo... see more lamb stew with vegetables 2010-06-27 - SHASHLYK of stuffed vegetables 2010-09-12 - pilaf with nuts and dried fruits 2010-10-10 - Basma 2010-10-31 - shurpa 2010-11-21 - pilaf with pumpkin2010-12-19 - quince stuffed in Kokand 2011 season 2011-03-20 - SHASHLYK liver 2011-06-26 - FERGHANA pilaf 2011-07-03 - SHASHLYK from groin-groin 2011-08-21 - SHASHLYK 'Five finger '' 2011-09-04 - ABB's Far East 2011-09-11 - Bakhsh - pilau Bukhara Jews 2011-09-25 - Fish with cilantro and garlic 2011-10-16 - kyufta-bozbash - lamb soup 2011-11 -06 - BAKED bars with shurpa 2011-11-13 - kyufta lamb with peaches2011-12-04 - Indian curries - chicken with rice 2011-12-11 - MASHHURDA - Uzbek soup 2011-12-18 - Shavlo with HASYPOM - Uzbek porridge with sausage 2011-12-25 - Baranja KIDNEY Uighur Season 2012 2012-03-04 - great lunch. 2012-04-30 - Cooking good kebab 2012-05-13 - Fish - Pizza. 2012-05-20 - OLC - kyu. 2012-06-03 - CHICKEN lyavangi. 2012-08-12 - SOUP PETE of Sheki 2012-08-19 - skewers of duck breast and pineapple 09/09/2012 - Lamb marinated peaches 2012-09-30 - Minced potato 11/04/2012 - Cooking in Tajima 25.11.2012 - Uzbek SALAD 12/23/2012 - Crimean pasties 2012-12-31 - Stuffed turkey season 201301.27.2013 - Roast duck 02/03/2013 - Dalma 02/17/2013 - Skewers of chicken 24/02/2013 - Chickens tobacco 10/03/2013 - Lamb stuffed with pilaf 17/03/2013 - Dymlyama 03/24/2013 - Jamila 03/31/2013 - Braised cabbage 04.07.2013 - Strudel 04/14/2013 - Lagman 21/04/2013 - Meatless pilaf 05/05/2013 - Kaurmusha 12.5.2013 - Kebab in kazan 05.19.2013 - Khashlama 09/06/2013 - Skewers of cells ykacha.09/01/2013 - Kebab 09/08/2013 - Pickles 22/09/2013 - liver with vegetables 29/09/2013 - Pilaf with quince10.13.2013 - Chicken breast with lemon 27/10/2013 - Stuffed vegetables 11/17/2013 - Hummus 12/08/2013 - Mashhurda 15/12/2013 - Bishbarmak 29/12/2013 - Gala dinner Season 2014 01.19.2014 - Steaks02/02/2014 - Paella 2014- 02-23 - Meatloaf 09/03/2014 - pilaf with buckwheat 03/23/2014 - Esik-Fleisch04.06.2014 - Beef Stroganoff 27/04/2014 - Halva 05/18/2014 - beans with ham 05/25/2014 - Samarkand pilaf 07/06/2014 - baklava 09.14.2014 - Azerbaijan pilaf sabzi-govurma 10.12.2014 - Prepare for dumlyamu new book Kazan. Culinary tutorial 26/10/2014 - Sultanma 16.11.2014 - Hush 11/23/2014 - Pilaf on scientific11/30/2014 - Skewers of trout season 2015 01.18.2015 - Skewers of catfish 25/01/2015 - Skewer of veal08/02/2015 - Dovga 02/22/2015 - Crown of lamb 08.03.2015 - Cake Napoleon 29/03/2015 - roulade of lamb leg 04.19.2015 - Borsch in a cauldron 2015-04 -26 - Manta 05/03/2015-marbled meat 05/11/2015 - Dolma from quail 17/05/2015 - fake lamb 31.05.2015 -Shashlyk vegetables 07.05.2015 -Ovoschnaya casserole2015-08- 30 - Roast lamb with POTATO 10.04.2015 - Govurma 04.11.2015 - Han - pilaf 11.08.2015 - risotto pumpkin 11.29.2015 - Kus cous 06.12.2015 - Samsa bone 2015 -12-27 - Ro zhdestvensky Goose Season 2016 24.01.2016 -Barani shank with candied fruit 01/31/2016 - Juicy roast beef. 03/13/2016 - liver pâté.04/24/2016 - Pilaf with dolma and eggs 05.15.2016 - Kyufta in Berber 19/06/2016 - Samsa in Moroccan09.25.2016 - Moroccan spinach salad 23/10/2016 - Language po- Moroccan. 30/10/2016 - Shurpa with quail13/11/2016 - Meat in Korean 11.27.2016 - Quick and tasty 12/04/2016 - pilaf with mushrooms 11.12.2016 - Harira - Moroccan soup 2017-01 -29 - preparation principle. 05/02/2017 - Pilaf duck 12/02/2017 - Chicken Tajin 26.03.2017 - Bisque of crayfish 04.02.2017 - In the kitchen Stalik. 09/04/2017 - Beef tail of Moroccan.04/16/2017 - cabbage rolls and stuffed peppers